ó ( | )

· · [ ]

>  - (2003), WavPack

vvbond
post Fri 10-Mar 06, 0:04
#1


Advanced Member
***

:
: 250
: 19.05.05
ϳ : 315



user posted image
- (2003)

: EAC/WavPack
: 45:48 .
: 273 .


, ( ), , , "" " ", , " ". , , . , . , , - , - . ϳ, , , - , , . , , . UMKA
  • 1.
  • 2.
  • 3.
  • 4.
  • 5.
  • 6. ϳ
  • 7.
  • 8.
  • 9.

    :
  • 10. ( )
  • 11. ( )
  • 12. ϳ ( )
na3ar

User is offlineProfile CardPM
Go to the top of the page
+Quote Post
2   1 2 > 
Reply to this topicStart new topicStart Poll
³(1 - 14)
KO3AK
post Fri 10-Mar 06, 5:43
#2


Unregistered









˳. .
Go to the top of the page
+Quote Post
distributor
post Fri 10-Mar 06, 10:11
#3


Unregistered









˳ "hide" .
Go to the top of the page
+Quote Post
laks
post Fri 10-Mar 06, 18:31
#4


Unregistered









HTTP ?
Go to the top of the page
+Quote Post
Vetal
post Fri 10-Mar 06, 21:12
#5


Advanced Member
***

:
: 579
: 8.10.05
:
ϳ : 673




<br /> - ?
User is offlineProfile CardPM
Go to the top of the page
+Quote Post
distributor
post Fri 10-Mar 06, 21:29
#6


Unregistered









˳ AICH , , .

.
Go to the top of the page
+Quote Post
KO3AK
post Sun 12-Mar 06, 2:20
#7


Unregistered









HTTP ˳
Go to the top of the page
+Quote Post
laks
post Tue 14-Mar 06, 14:35
#8


Unregistered









hi.gif ! !
! ? ?
Go to the top of the page
+Quote Post
zazai
post Tue 14-Mar 06, 20:14
#9


Advanced Member
***

: V.I.P.
: 366
: 1.10.04
:
ϳ : 56



!

CODE

REM GENRE "Adult Alternative"
REM DATE 2003
REM DISCID 8D0ABC0C
REM COMMENT "ExactAudioCopy v0.95b4"
PERFORMER " "
TITLE " "
FILE "Taras.Chubaj.-.Nash.Ivasyuk.(2003).EAC-WV.[CUE&LOG.tagged.within].ukrainian.by_na3ar.wav" WAVE
TRACK 01 AUDIO
TITLE ""
PERFORMER " "
FLAGS DCP
INDEX 01 00:00:00
TRACK 02 AUDIO
TITLE " "
PERFORMER " "
FLAGS DCP
INDEX 00 03:01:13
INDEX 01 03:03:13
TRACK 03 AUDIO
TITLE " "
PERFORMER " "
FLAGS DCP
INDEX 00 08:16:21
INDEX 01 08:18:21
TRACK 04 AUDIO
TITLE " "
PERFORMER " "
FLAGS DCP
INDEX 00 11:51:11
INDEX 01 11:53:11
TRACK 05 AUDIO
TITLE " "
PERFORMER " "
FLAGS DCP
INDEX 00 16:18:35
INDEX 01 16:20:35
TRACK 06 AUDIO
TITLE "ϳ "
PERFORMER " "
FLAGS DCP
INDEX 00 20:02:61
INDEX 01 20:04:61
TRACK 07 AUDIO
TITLE ""
PERFORMER " "
FLAGS DCP
INDEX 00 23:45:23
INDEX 01 23:47:23
TRACK 08 AUDIO
TITLE " "
PERFORMER " "
FLAGS DCP
INDEX 00 27:08:45
INDEX 01 27:10:45
TRACK 09 AUDIO
TITLE " "
PERFORMER " "
FLAGS DCP
INDEX 00 30:54:33
INDEX 01 30:57:33
TRACK 10 AUDIO
TITLE " ( )"
PERFORMER " "
FLAGS DCP
INDEX 00 35:37:14
INDEX 01 35:39:14
TRACK 11 AUDIO
TITLE " ( )"
PERFORMER " "
FLAGS DCP
INDEX 00 38:21:21
INDEX 01 38:23:21
TRACK 12 AUDIO
TITLE "ϳ ( )"
PERFORMER " "
FLAGS DCP
INDEX 00 42:06:47
INDEX 01 42:08:47


-, . .cue


--------------------
,
User is offlineProfile CardPM
Go to the top of the page
+Quote Post
laks
post Tue 14-Mar 06, 20:49
#10


Unregistered









QUOTE(zazai @ Tue 14-Mar 06, 21:14)
!

hi.gif !
Go to the top of the page
+Quote Post
Admin
post Sun 2-Apr 06, 6:57
#11


Administrator
***

:
: 4.946
: 6.06.04
ϳ : 1



vvbond ?
User is offlineProfile CardPM
Go to the top of the page
+Quote Post
voodoos
post Sun 9-Apr 06, 12:24
#12


Advanced Member
***

:
: 165
: 9.04.06
: (.. )
ϳ : 2.515



QUOTE(KO3AK @ Sun 12-Mar 06, 1:20)
HTTP ˳
*



FlashGet. , . smile.gif

, , , . , ! good.gif


--------------------
.
http://tiahnybok.info
User is offlineProfile CardPM
Go to the top of the page
+Quote Post
Admin
post Sun 9-Apr 06, 13:42
#13


Administrator
***

:
: 4.946
: 6.06.04
ϳ : 1



QUOTE(voodoos @ Sun 9-Apr 06, 3:24)
FlashGet. , .  smile.gif
*



QUOTE(voodoos @ Sun 9-Apr 06, 3:24)
, , , . , !  good.gif
*

! smile.gif
User is offlineProfile CardPM
Go to the top of the page
+Quote Post
vital & dana
post Tue 11-Apr 06, 20:40
#14


Unregistered









. . good.gif good.gif
Go to the top of the page
+Quote Post
voodoos
post Wed 12-Apr 06, 13:00
#15


Advanced Member
***

:
: 165
: 9.04.06
: (.. )
ϳ : 2.515



QUOTE(zazai @ Tue 14-Mar 06, 19:14)
!

CODE

REM GENRE "Adult Alternative"
REM DATE 2003
REM DISCID 8D0ABC0C
REM COMMENT "ExactAudioCopy v0.95b4"
PERFORMER " "
TITLE " "
FILE "Taras.Chubaj.-.Nash.Ivasyuk.(2003).EAC-WV.[CUE&LOG.tagged.within].ukrainian.by_na3ar.wav" WAVE
TRACK 01 AUDIO
TITLE ""
PERFORMER " "
FLAGS DCP
INDEX 01 00:00:00


-, . .cue
*



. wav, . coffee19.gif

voodoos: Wed 12-Apr 06, 14:07


--------------------
.
http://tiahnybok.info
User is offlineProfile CardPM
Go to the top of the page
+Quote Post
« · · »
 

2   1 2 >
Reply to this topicTopic OptionsStart new topic
 

Map : 17.07.19, 5:18
Invision Power Board (Free Trial) v.2 © 2019  IPS, Inc.