Привіт Гість ( Вхід | Реєстрація )

каскадний · стандартний · [ лінійний ]

> Збірник українських народних казок. Казки - 3, APE/EAC

TestDivX
post Sat 24-Feb 07, 2:47
Пост #1


Member
**

Група: Активні Учасники
Повідомлень: 18
З нами з: 12.09.04
Пірат №: 37



user posted image
Збірник українських народних казок. Казки - 3

Якість - APE/EAC
Тривалість: 34:28 хв.
Розмір: 184 Мб.


Вашій увазі дещо новеньке - а саме збірник українських народних казок. Дорослим, гадаю, приємно буде їх пригадати. Але ще приємніше те, що для дітлахів це нагода відкрити для себе цілий казковий світ - адже українські казки неабияк відрізняються від, скажімо, англійських або африканських. При цьому, однак, як і повинно бути, ці казки навчатимуть дітей головному - правді та любові, мудрості та кмітливості. До того ж казки тут розказані не в один голос, а художньо, з досить різноманітним звуковим супроводом, тому слухаються вони з цікавістю. І, як завжди - бонус, себто дві колискові. © UMKA
  • 1. Телесик
  • 2. Як мужик пана дурив
  • 3. Колискова
  • 4. Мудра дівчина
  • 5. Як солдат царя обдурив
  • 6. Колискова
Лінк: Торрент
шара закінчилася, тепер тільки трекер:

Дивіться також:
User is offlineProfile CardPM
Go to the top of the page
+Quote Post
 
Reply to this topicStart new topicStart Poll
Відповідей(1 - 11)
TestDivX
post Sat 24-Feb 07, 2:54
Пост #2


Member
**

Група: Активні Учасники
Повідомлень: 18
З нами з: 12.09.04
Пірат №: 37



А також є частини 4-6. Якщо будуть зацікавлені, то виставлю
User is offlineProfile CardPM
Go to the top of the page
+Quote Post
TestDivX
post Sat 24-Feb 07, 20:56
Пост #3


Member
**

Група: Активні Учасники
Повідомлень: 18
З нами з: 12.09.04
Пірат №: 37



sad.gif
Назва файлу - "Unknown Artist - Unknown Title.cue"

CODE
REM DISCID 5A081408
REM COMMENT "ExactAudioCopy v0.95b4"
PERFORMER "Unknown Artist"
TITLE "Unknown Title"
FILE "Unknown Artist - Unknown Title.wav" WAVE
 TRACK 01 AUDIO
   TITLE "Track01"
   PERFORMER "Unknown Artist"
   INDEX 01 00:00:00
 TRACK 02 AUDIO
   TITLE "Track02"
   PERFORMER "Unknown Artist"
   INDEX 01 00:54:17
 TRACK 03 AUDIO
   TITLE "Track03"
   PERFORMER "Unknown Artist"
   INDEX 01 11:00:10
 TRACK 04 AUDIO
   TITLE "Track04"
   PERFORMER "Unknown Artist"
   INDEX 01 14:14:67
 TRACK 05 AUDIO
   TITLE "Track05"
   PERFORMER "Unknown Artist"
   INDEX 01 16:53:64
 TRACK 06 AUDIO
   TITLE "Track06"
   PERFORMER "Unknown Artist"
   INDEX 01 17:22:13
 TRACK 07 AUDIO
   TITLE "Track07"
   PERFORMER "Unknown Artist"
   INDEX 01 27:05:01
 TRACK 08 AUDIO
   TITLE "Track08"
   PERFORMER "Unknown Artist"
   INDEX 01 31:49:08
User is offlineProfile CardPM
Go to the top of the page
+Quote Post
nazar2002
post Mon 26-Feb 07, 10:28
Пост #4


Advanced Member
***

Група: Активні Учасники
Повідомлень: 122
З нами з: 5.08.06
З: м. Калуш
Пірат №: 3.562



QUOTE(TestDivX @ Sat 24-Feb 07, 1:54)
А також є частини 4-6. Якщо будуть зацікавлені, то виставлю
*



Якщо можна - залий кудись 4,5,6 частини. Дякую. good.gif

Редаговано nazar2002: Mon 26-Feb 07, 10:29


--------------------
Я люблю всіх, хто любить Україну!!!

Я люблю всіх, хто живе для України!!!

Я люблю всіх, хто в серці має УКРАЇНУ!!!
User is offlineProfile CardPM
Go to the top of the page
+Quote Post
vasul'
post Mon 26-Feb 07, 12:37
Пост #5


Unregistered









DYZE diakyjy yahoo.gif
Moji ditu prosto maniaku na kazku - tilku sudat ciluj vecir ta slychajyt na Playstation
Go to the top of the page
+Quote Post
CVI
post Mon 26-Feb 07, 14:39
Пост #6


Unregistered









Чекаю на частини 4-6.

Перепрошую, але частини 1 та 2 я пропустив, чи їх не було?
Go to the top of the page
+Quote Post
lys
post Mon 30-Apr 07, 17:54
Пост #7


новенький
*

Група: Учасники
Повідомлень: 1
З нами з: 21.02.07
Пірат №: 6.466



Дякую за казки - вирішив боротися із телевізором, а то сина не відірвеш від нього. Російськомовні казки є (їх знайти та скачати набагато легше в Інеті), а українських мало - точніше сам читаю. javascript:emoticon(':super:')
User is offlineProfile CardPM
Go to the top of the page
+Quote Post
Kadr
post Sun 27-May 07, 10:21
Пост #8


Member
**

Група: Учасники
Повідомлень: 23
З нами з: 13.12.05
З: Стрий
Пірат №: 1.253



Казки-3 на RapidShare

http://rapidshare.com/files/33594838/Kazky.3.APE.part1.rar
http://rapidshare.com/files/33607876/Kazky.3.APE.part2.rar

архів ідентичний до того, що на сервері.
User is offlineProfile CardPM
Go to the top of the page
+Quote Post
esergk
post Mon 11-Jun 07, 15:51
Пост #9


Unregistered









Добрий день.
Безмежно Вам вдячний за представлену можливість hi.gif
З повагою,
Сергій

Редаговано esergk: Mon 11-Jun 07, 15:57
Go to the top of the page
+Quote Post
petrashek
post Wed 5-Dec 07, 11:39
Пост #10


Member
**

Група: Учасники
Повідомлень: 16
З нами з: 26.11.07
З: м. Львів
Пірат №: 13.661



Дуже вдячні.
А дитина просто в захваті!!!
User is offlineProfile CardPM
Go to the top of the page
+Quote Post
[email protected]
post Tue 18-Dec 07, 16:17
Пост #11


Advanced Member
***

Група: Активні Учасники
Повідомлень: 135
З нами з: 9.12.07
Пірат №: 14.005



Щиро дякую! Класний реліз, піду інші частини стягну - малий буде тішитись.
User is offlineProfile CardPM
Go to the top of the page
+Quote Post
tomko
post Mon 7-Jan 08, 17:35
Пост #12


Unregistered









Щиро Дякую.
Go to the top of the page
+Quote Post

Reply to this topicTopic OptionsStart new topic
 

Map Текстова Версія Поточний час: 19.10.19, 5:05
Українська версія Invision Power Board (Free Trial) v.2 © 2019  IPS, Inc.