Привіт Гість ( Вхід | Реєстрація )

каскадний · стандартний · [ лінійний ]

> Дармограй - Цей Веселий "Дармограй" 2 (2004), APE/EAC/CUE

zsyrome
post Sun 9-Sep 07, 19:02
Пост #1


Advanced Member
***

Група: Активні Учасники
Повідомлень: 35
З нами з: 14.10.05
Пірат №: 715



user posted image
Дармограй - Цей Веселий "Дармограй" 2 (2004)

Якість: APE/EAC + обкладинки
Тривалість: 33:45хв
Розмір: 245Мб


Ви й самі бачите, що – не перший вже диск гурту. Але марка витримується, і це означає, що нудьгувати доведеться з яким-небудь іншим диском – не з цим. Не те, щоб усі пісні тут були жартівливими. Є, звісно, і такі, проте, є і просто м’які, ліричні. Мелодії течуть легко, настрої переливаються, як краплина роси вранці – все добре. Просто, але не примітивно, якісно, але не сухо. Хоч ці пісні, здебільшого, добре знайомі, але є у виконанні приємна свіжість – і слухаєш їх ніби вперше. Іншими словами, гурт таки добре попрацював, не пожалкував часу – і маємо відповідний результат. Приязність просто напитує повітря, так і хочеться посміхнутись, цуценяті за вухом почесати, абощо. Таким чином, диск рекомендується для прослуховування у будь-яку погоду, будь-якої пори року. © UMKA
  • 1.Шабелина
  • 2.Ой, Поїхав Наш Іван
  • 3.Стоїть Дівча
  • 4.Несе Галя Воду
  • 5.Три Сини
  • 6.Гиля, Гиля, Сірі Гуси
  • 7.Перелаз
  • 8.Віночок Українських Народних Пісень
  • 9.Била Мене Мати
  • 10.Полька
  • 11.Їхали Козаки
Дивіться також: Дармограй - "Цей Веселий" (1998)

Лінк на Торрент
шара закінчилася, тепер тільки трекер:
Купуйте ліцензійну продукцію!
Інтернет-крамниці: УМКА / АртВертеп / Наш Формат / Книгарня "Є"
User is offlineProfile CardPM
Go to the top of the page
+Quote Post
 
Reply to this topicStart new topicStart Poll
Відповідей(1 - 3)
Admin
post Mon 10-Sep 07, 6:02
Пост #2


Administrator
***

Група: Адміністрація
Повідомлень: 4.946
З нами з: 6.06.04
Пірат №: 1



додано лінк з сервера
User is offlineProfile CardPM
Go to the top of the page
+Quote Post
MisterR
post Mon 10-Sep 07, 20:54
Пост #3


Advanced Member
***

Група: Модератор
Повідомлень: 718
З нами з: 15.12.05
З: Львів
Пірат №: 1.270



Якість: MP3 320 kbps VBR + covers
Тривалість: 33:45 хв.
Розмір: 73,7 Мб.

rapidshare.com


--------------------
Якщо ти любиш українську музику і шукаєш тексти улюблених виконавців, заглянь сюди - nashe.com.ua.
User is offlineProfile CardPM
Go to the top of the page
+Quote Post
oleg_M
post Mon 17-Sep 07, 20:19
Пост #4


Unregistered









Додано альтернативу віслючкову (файл той самий, що на сервері - незмінений):

CUE-файл (виправлений):
CODE
REM DATE 2004
REM DISCID 9808230B
REM COMMENT "ExactAudioCopy v0.95b4"
PERFORMER "Дармограй"
TITLE "Цей веселий ''Дармограй'' 2"
FILE "Darmohray.-.Tsey_Veselyj_Darmohray2.ape" WAVE
 TRACK 01 AUDIO
   TITLE "Шабелина"
   PERFORMER "Дармограй"
   FLAGS DCP
   INDEX 01 00:00:00
 TRACK 02 AUDIO
   TITLE "Ой, поїхав наш Іван"
   PERFORMER "Дармограй"
   FLAGS DCP
   INDEX 01 01:37:50
 TRACK 03 AUDIO
   TITLE "Стоїть дівча"
   PERFORMER "Дармограй"
   FLAGS DCP
   INDEX 01 04:08:03
 TRACK 04 AUDIO
   TITLE "Несе Галя воду"
   PERFORMER "Дармограй"
   FLAGS DCP
   INDEX 01 08:32:50
 TRACK 05 AUDIO
   TITLE "Три сини"
   PERFORMER "Дармограй"
   FLAGS DCP
   INDEX 01 11:06:17
 TRACK 06 AUDIO
   TITLE "Гиля, гиля, сірі гуси"
   PERFORMER "Дармограй"
   FLAGS DCP
   INDEX 01 13:47:36
 TRACK 07 AUDIO
   TITLE "Перелаз"
   PERFORMER "Дармограй"
   FLAGS DCP
   INDEX 01 17:50:15
 TRACK 08 AUDIO
   TITLE "Віночок українських народних пісень"
   PERFORMER "Дармограй"
   FLAGS DCP
   INDEX 01 22:26:42
 TRACK 09 AUDIO
   TITLE "Била мене мати"
   PERFORMER "Дармограй"
   FLAGS DCP
   INDEX 01 25:44:23
 TRACK 10 AUDIO
   TITLE "Полька"
   PERFORMER "Дармограй"
   FLAGS DCP
   INDEX 01 28:27:48
 TRACK 11 AUDIO
   TITLE "Їхали козаки"
   PERFORMER "Дармограй"
   FLAGS DCP
   INDEX 01 30:51:50
Go to the top of the page
+Quote Post

Reply to this topicTopic OptionsStart new topic
 

Map Текстова Версія Поточний час: 13.12.19, 14:30
Українська версія Invision Power Board (Free Trial) v.2 © 2019  IPS, Inc.